maandag 28 september 2020

DVD - KISS live in St. Louis 1997 - 2DVD - April 15

  KISS

Kiel Center

St. Louis, MO

April 15, 1997

Audience Master DVD (Left Angle) (2 Audio Tracks)


SET LIST


Disc 1 (1:03:02)


Deuce

King of the Night Time World

Let Me Go, Rock 'N' Roll

Do You Love Me

Firehouse

Watchin' You

Shock Me/Guitar Solo

Calling Dr. Love

Shout It Out Loud

Cold Gin

Love Gun


Disc 2 (59:12)


C'mon and Love Me

I Was Made for Lovin' You

Bass Solo

God of Thunder

Drum Solo

New York Groove

100,000 Years

Black Diamond

Detroit Rock City

Beth

Rock and Roll All Nite


General

Complete name : Disc 1/VIDEO_TS/VTS_01_1.VOB

Format : MPEG-PS

File size : 1 023 MiB

Duration : 15 min 49 s

Overall bit rate mode : Variable

Overall bit rate : 9 042 kb/s


Video

ID : 224 (0xE0)

Format : MPEG Video

Format version : Version 2

Format profile : Main@Main

Format settings : BVOP

Format settings, BVOP : Yes

Format settings, Matrix : Default

Format settings, GOP : M=3, N=15

Format settings, picture structure : Frame

Duration : 15 min 49 s

Bit rate mode : Variable

Bit rate : 8 350 kb/s

Maximum bit rate : 9 558 kb/s

Width : 704 pixels

Height : 480 pixels

Display aspect ratio : 4:3

Frame rate : 29.970 (30000/1001) FPS

Standard : NTSC

Color space : YUV

Chroma subsampling : 4:2:0

Bit depth : 8 bits

Scan type : Interlaced

Scan order : Top Field First

Compression mode : Lossy

Bits/(Pixel*Frame) : 0.824

Time code of first frame : 00:00:00:00

Time code source : Group of pictures header

GOP, Open/Closed : Open

GOP, Open/Closed of first frame : Closed

Stream size : 945 MiB (92%)


Audio #1

ID : 189 (0xBD)-128 (0x80)

Format : AC-3

Format/Info : Audio Coding 3

Commercial name : Dolby Digital

Muxing mode : DVD-Video

Duration : 15 min 49 s

Bit rate mode : Constant

Bit rate : 256 kb/s

Channel(s) : 2 channels

Channel layout : L R

Sampling rate : 48.0 kHz

Frame rate : 31.250 FPS (1536 SPF)

Compression mode : Lossy

Stream size : 29.0 MiB (3%)

Service kind : Complete Main


Audio #2

ID : 189 (0xBD)-129 (0x81)

Format : AC-3

Format/Info : Audio Coding 3

Commercial name : Dolby Digital

Muxing mode : DVD-Video

Duration : 15 min 49 s

Bit rate mode : Constant

Bit rate : 256 kb/s

Channel(s) : 2 channels

Channel layout : L R

Sampling rate : 48.0 kHz

Frame rate : 31.250 FPS (1536 SPF)

Compression mode : Lossy

Stream size : 29.0 MiB (3%)

Service kind : Complete Main


Fingerprints:


f0b011fe2842e7b35ace0d68e6dee9a8 *VIDEO_TS.BUP

f0b011fe2842e7b35ace0d68e6dee9a8 *VIDEO_TS.IFO

8c90bc37efa9f397b752fd5b918dcb4e *VIDEO_TS.VOB

e12b7ff5e026e26129e7f2346b043d2a *VTS_01_0.BUP

e12b7ff5e026e26129e7f2346b043d2a *VTS_01_0.IFO

cf11cdfdbd35a4b485710ea4b3b2c235 *VTS_01_0.VOB

e61b16a6b3a42f1066c641323b383c6a *VTS_01_1.VOB

25c972b7312ccba4be3f419886319253 *VTS_01_2.VOB

e7f92a737d820116277f6e8bccc9ab65 *VTS_01_3.VOB

2353a44ff448f1ae14fb70cc1cfaf13b *VTS_01_4.VOB


f86240a3d271e6da4bd15ee91f763657 *VIDEO_TS.BUP

f86240a3d271e6da4bd15ee91f763657 *VIDEO_TS.IFO

8c90bc37efa9f397b752fd5b918dcb4e *VIDEO_TS.VOB

49b7de9bfef9d50ac6b4cb2197fca310 *VTS_01_0.BUP

49b7de9bfef9d50ac6b4cb2197fca310 *VTS_01_0.IFO

79af2cdaeee981dd16edbd380a57013d *VTS_01_0.VOB

a26642c7f19b3c36bc7c04f7215a90ac *VTS_01_1.VOB

ad64a1658f2a428789ac9680f49fc5a9 *VTS_01_2.VOB

b6541f3d150a0ae8314506e5156aac7d *VTS_01_3.VOB

162825724dc17691e559788e593cb8d3 *VTS_01_4.VOB

fdaac3f6ea2589ec2f16496b32bbf6b3 *VTS_01_5.VOB


Download part 1 here

Download part 2 here

Download part 3 here

Download part 4 here

Download part 5 here

Download part 6 here

Download part 7 here

Download part 8 here

Download part 9 here

                                 

vrijdag 18 september 2020

DVD - KISS live in Tampa 1990 - 1DVD - August 4

  Kiss

USF Sundome

Tampa, FL

August 4, 1990

Supported by Danger Danger and Slaughter


source: NTSC AUD DVD

length: 1:58:54


Nice video from Tampa, Florida during the Hot In The Shade tour! The band had a lot of energy and put on an excellent show.


Setlist:


I Stole Your Love

Deuce

Heaven's On Fire

Crazy Crazy Nights

Black Diamond

Shout It Out Loud

Strutter

Calling Dr. Love

I Was Made For Lovin' You

Rise To It

Fits Like A Glove

Hide Your Heart

Lick It Up

God of Thunder

Eric Carr Drum Solo

Forever

Cold Gin

Tears Are Falling

I Love It Loud

Love Gun

Detroit Rock City

I Want You

Rock And Roll All Nite (fades out)


Enjoy!


Nashwolverine



Fingerprints:



25447a6c2e8009e6050b9063a8f53fe4 *VIDEO_TS.BUP

25447a6c2e8009e6050b9063a8f53fe4 *VIDEO_TS.IFO

196d82e1f7afacc6ea4f4a1caa0dbc2f *VIDEO_TS.VOB

6613995fc63b787e2fab72f3b3cc2d60 *VTS_01_0.BUP

6613995fc63b787e2fab72f3b3cc2d60 *VTS_01_0.IFO

18789bdabf740c2df4b3081c6d4e8cf0 *VTS_01_0.VOB

50cfccc7b2b2b608cd8422966463cbc3 *VTS_01_1.VOB

4c040b4a7ddeb3942603470b6663642a *VTS_01_2.VOB

620ac77c422e496628bdac0e991134fc *VTS_01_3.VOB

32235c6fabec07e3069f4f1188bfcd5e *VTS_01_4.VOB

0124185d2d2dfa07bfc5967bf04c0432 *VTS_01_5.VOB


Download part 1 here

Download part 2 here

Download part 3 here

Download part 4 here

Download part 5 here

                                

zaterdag 5 september 2020

DVD - Ace Frehley live in Buffalo 2015 - 1DVD - September 21

  Ace Frehley

UB Center For The Arts

Buffalo, NY

September 21, 2015


I filmed this with a Panasonic PV-GS80 mini-dv camera from the front row of the balcony and transferred it to DVD with TMPGEnc.


93 minutes


Setlist:


Space Invader

Gimme A Feelin'

Rocket Ride

Love Gun

Breakout

Toys

Snow Blind

Rock Soldiers

Chris Wyse Solo

Strange Ways

New York Groove

2 Young 2 Die

Shock Me

Ace Frehley Solo

Rip It Out

Detroit Rock City

Deuce


VIDEO:


NTSC

16:9

720x480

29.97/s

MPEG2


AUDIO:


AC3

48kHz

224 kb/s

Stereo


Fingerprints:


1ac3f73a2bb7e08d1e2fc720278869da *VIDEO_TS.BUP

1ac3f73a2bb7e08d1e2fc720278869da *VIDEO_TS.IFO

fc984c2e724fa1ab024b26511456cee3 *VTS_01_0.BUP

fc984c2e724fa1ab024b26511456cee3 *VTS_01_0.IFO

6a6feaeb89e1712eceeac1c780bdd420 *VTS_01_0.VOB

e1685d1a43ac139f2f8e4b6e7cef6621 *VTS_01_1.VOB

c554c70d5ca879542a2a9bac79b50948 *VTS_01_2.VOB

34630e54024fdf1d5e63ea7dc22e7b25 *VTS_01_3.VOB

0f9ae0973e6c79bbd4db3bad74525fc7 *VTS_01_4.VOB

b97d911191537c285f07be3f1f0824bd *VTS_01_5.VOB


Download part 1 here

Download part 2 here

Download part 3 here

Download part 4 here

Download part 5 here

                              

DVD - Ace Frehley live in New York 1993 - 1DVD - May 1

  Ace Frehley

The Ritz

New York City, NY

May 01, 1993


Audience Video Master (Damage Inc Authoring)


Setlist:


Shock Me

Parasite

Breakout

Trouble Walkin'

Shot Full of Rock

New York Groove

Cold Gin

Strange Ways

Rock Soldiers

2 Young 2 Die

Rip It Out (with Dimebag Darrell)

Strutter

Rocket Ride

Detroit Rock City

Deuce


- Audio Codec: LPCM

- Video System: NTSC 29.97 fps

- Video Bitrate: 8838 kbps


Download part 1 here

Download part 2 here

Download part 3 here

Download part 4 here

Download part 5 here

Download part 6 here

                                 

zaterdag 11 januari 2020

DVD - KISS live in Rotterdam 2017 - 1DVD - May 24

Band: KISS
Date: 24-05-2017
Venue: Ahoy
City: Rotterdam
Country: The Netherlands
Title: My First KISS
Recording deveice: Lumix TZ70, stereo, dolby audio, 30 x Zoom
Position: mid, approx row 40
Cover: Included
Menu: Yes, with chapters

This will be shared as audio (flac), DVD and BR format.

Setlist
Pre-announcement of the concert by Gene Simmons and Paul Stanley before menu starts
01 Intro
02 Deuce
03 Shout It Out Loud
Rember the Victims of Manchester (suicide attack on 22-05-2017, after Ariana Grandes show at Manchester Arena)
04 Lick It Up
05 I Love It Loud
06 Firehouse
07 Shock Me
08 Guitar Solo
09 Flaming Youth
10 Bass Solo
11 God of Thunder
12 Crazy Crazy Nights
13 War Machine
14 Say Yeah
15 Psycho Circus
16 Black Diamond
17 Rock and Roll All Nite

Encore:
18 I Was Made for Lovin’ You
19 Detroit Rock City
20 Tape outro - God Gave Rock 'n Roll to You

Download part 1 here
Download part 2 here
Download part 3 here
Download part 4 here
Download part 5 here
Download part 6 here
                           

DVD - Gene Simmons live in Lynn 2018 - 1DL-DVD - February 26

Gene Simmons
2018-02-26
Lynn, Ma
Lynn Auditorium

B&P to me (Dual Layer) --> IMGBurn to rip from disc onto Harddrive --> Dime --> YOU!

Setlist
--------------------------------------------------------

01 - Intro
02 - Deuce
03 - Shout It Out Loud
04 - Are You Ready
05 - Parasite
06 - Calling Dr Love (w/ special guest singer)
07 - Do You Love Me?
08 - Almost Human
09 - Long Tall Sally
10 - I
11 - Help!
12 - I Love It Loud
13 - War Machine
14 - Strutter
15 - Sweet Pain
16 - She's So European
17 - Charisma
18 - It's My Life
19 - Rock And Roll All Nite

---------------------------------------------------------
Great sounding show, very good video quality, chaptered but no menu. Seems to be 2 angles but most of it is from the same one, LEFT side. Very steady, with a few minor jumps here and there but this one of the best videos i've seen in ages and the first one from Gene's solo tour, that i've seen; there might be others but i haven't gotten one so if you have anymore, please share.
Please don't sell this or or force anyone to buy this because selling bootlegs is bad and Gene Simmons will come to your house if he finds out and SUE YOUR ASS! You think i'm kidding? You don't know Gene. Otherwise, do whatever you want with it as long as you don't downgrade and pollute the trading circles or sell it.

Download part 1 here
Download part 2 here
Download part 3 here
Download part 4 here
Download part 5 here
Download part 6 here
                         

zondag 5 januari 2020

DVD - KISS live in Adelaide 1995 - 1DVD - February 5 - unplugged show

KISS - 1995-02-05 Hilton Hotel Ballroom, Adelaide, Australia, Unplugged

AUD / No Time Code Version / DL-DVD / 84 mins

**SETLIST**
Strutter
Domino
Shandi
Goin' Blind
I Still Love You
Let Me Know
Rock Bottom
I Love It Loud
Got To Choose
Magic Touch
Calling Dr. Love
Forever
All The Way
Comin' Home
Mr. Speed
Take Me
A World Without Heroes
Just A Boy
Charisma
Do You Love Me?
Hotter Than Hell
Gold Gin
Autograph Session


General
Complete name : G:UploadsKISS - 1995-02-05 - Hilton Hotel, Adelaide, Australia, Unplugged (No Time Code Version) (Audience) (84 mins) DL-DVDVIDEO_TSVTS_01_1.VOB
Format : MPEG-PS
File size : 1 024 MiB
Duration : 16 min 13 s
Overall bit rate mode : Variable
Overall bit rate : 8 823 kb/s

Video
ID : 224 (0xE0)
Format : MPEG Video
Format version : Version 2
Format profile : Main@Main
Format settings, BVOP : Yes
Format settings, Matrix : Custom
Format settings, GOP : M=3, N=15
Duration : 16 min 13 s
Bit rate mode : Variable
Bit rate : 7 111 kb/s
Maximum bit rate : 8 242 kb/s
Width : 720 pixels
Height : 480 pixels
Display aspect ratio : 4:3
Frame rate : 29.970 (30000/1001) FPS
Standard : NTSC
Color space : YUV
Chroma subsampling : 4:2:0
Bit depth : 8 bits
Scan type : Progressive
Scan order : Top Field First
Compression mode : Lossy
Bits/(Pixel*Frame) : 0.687
Time code of first frame : 00:00:00:00
Time code source : Group of pictures header
GOP, Open/Closed : Open
GOP, Open/Closed of first fram : Closed
Stream size : 825 MiB (81%)

Audio
ID : 189 (0xBD)-160 (0xA0)
Format : PCM
Format settings, Endianness : Big
Format settings, Sign : Signed
Muxing mode : DVD-Video
Duration : 16 min 13 s
Bit rate mode : Constant
Bit rate : 1 536 kb/s
Channel(s) : 2 channels
Sampling rate : 48.0 kHz
Bit depth : 16 bits
Delay relative to video : -34 ms
Stream size : 178 MiB (17%)

Download part 1 here
Download part 2 here
Download part 3 here
Download part 4 here
Download part 5 here
Download part 6 here